+ surpriseairvague.com »  :::: Bollywood Zone » Regional Movies » Bengali Movies
|- Neel Akasher Chadni (Bengali Movie ) - HDTV Rip[x264 - AAC3(5.1Ch)] - 850 MB


Samsung Galaxy 8

Neel Akasher Chadni (Bengali Movie ) - HDTV Rip[x264 - AAC3(5.1Ch)] - 850 MB

0 Members and 1 Guest are viewing this topic.

October 20, 2018, 03:09:54 PM
  • Semi Newbie
  • **
  • Topic Author
  • Thank You: 0
  • Reputation: -1
  • Activity:
    5.4%
  • Country: bd
  • Posts: 27
  • Topics: 27
  • Join Date: Oct 2018
  • ShareSpark Member
      Neel Akasher Chadni (Bengali Movie ) -
HDTV Rip[x264 - AAC3(5.1Ch)] - 850 MB   
 




Code: [Select]
General
Format                                   : Matroska
Format version                           : Version 4
File size                                : 850 MiB
Duration                                 : 2 h 38 min

Video
ID                                       : 1
Format                                   : AVC
Format/Info                              : Advanced Video Codec
Format profile                           : [email protected]
Format settings                          : CABAC / 4 Ref Frames
Format settings, CABAC                   : Yes
Format settings, RefFrames               : 4 frames
Codec ID                                 : V_MPEG4/ISO/AVC
Duration                                 : 2 h 38 min
Bit rate                                 : 618 kb/s
Width                                    : 640 pixels
Height                                   : 272 pixels
Display aspect ratio                     : 2.35:1
Frame rate mode                          : Constant
Frame rate                               : 25.000 FPS
Color space                              : YUV
Chroma subsampling                       : 4:2:0
Bit depth                                : 8 bits
Scan type                                : Progressive
Bits/(Pixel*Frame)                       : 0.142
Stream size                              : 702 MiB (83%)

Audio
ID                                       : 2
Format                                   : AAC LC SBR
Commercial name                          : HE-AAC
Format settings                          : Explicit
Codec ID                                 : A_AAC-2
Duration                                 : 2 h 38 min
Bit rate                                 : 128 kb/s
Channel(s)                               : 6 channels
Channel layout                           : C L R Ls Rs LFE
Sampling rate                            : 48.0 kHz
Stream size                              : 145 MiB (17%)


  Thumbnail   






OR

OR

Share this topic on FacebookShare this topic on GoogleShare this topic on MySpaceShare this topic on TwitterShare this topic on Yahoo




Tags:
 

Related Topics





Back to top
Sitemap