+ surpriseairvague.com »  :::: Bollywood Zone » Regional Movies » Regional Movies in Hindi
|- Khiladi Rockstar(2018 - Johnny Johnny Yes Papa) - Hindi Dubbed - 1CD - DTHRip[Mp4 - AAC3(5.1Ch)]


Electroncs Sale

Khiladi Rockstar(2018 - Johnny Johnny Yes Papa) - Hindi Dubbed - 1CD - DTHRip[Mp4 - AAC3(5.1Ch)]

0 Members and 1 Guest are viewing this topic.

October 07, 2018, 10:08:18 AM
  • Semi Newbie
  • **
  • Topic Author
  • Thank You: 0
  • Reputation: -1
  • Activity:
    5.4%
  • Country: bd
  • Posts: 27
  • Topics: 27
  • Join Date: Oct 2018
  • ShareSpark Member
  Khiladi Rockstar(2018 - Johnny Johnny Yes Papa) -
Hindi Dubbed - 1CD - DTHRip[Mp4 - AAC3(5.1Ch)]   
 





Code: [Select]
General
Format                                   : MPEG-4
Format profile                           : Base Media
Codec ID                                 : isom (isom)
File size                                : 701 MiB
Duration                                 : 2 h 34 min

Video
ID                                       : 1
Format                                   : AVC
Format/Info                              : Advanced Video Codec
Format profile                           : [email protected]
Format settings                          : CABAC / 4 Ref Frames
Format settings, CABAC                   : Yes
Format settings, RefFrames               : 4 frames
Codec ID                                 : avc1
Codec ID/Info                            : Advanced Video Coding
Duration                                 : 2 h 34 min
Bit rate                                 : 553 kb/s
Maximum bit rate                         : 2 545 kb/s
Width                                    : 560 pixels
Height                                   : 240 pixels
Display aspect ratio                     : 2.35:1
Frame rate mode                          : Constant
Frame rate                               : 25.000 FPS
Color space                              : YUV
Chroma subsampling                       : 4:2:0
Bit depth                                : 8 bits
Scan type                                : Progressive
Bits/(Pixel*Frame)                       : 0.165
Stream size                              : 609 MiB (87%)

Audio
ID                                       : 2
Format                                   : AAC LC SBR
Commercial name                          : HE-AAC
Format settings                          : Explicit
Codec ID                                 : mp4a-40-2
Duration                                 : 2 h 34 min
Bit rate mode                            : Variable
Bit rate                                 : 79.8 kb/s
Maximum bit rate                         : 88.5 kb/s
Channel(s)                               : 6 channels
Channel layout                           : C L R Ls Rs LFE
Sampling rate                            : 48.0 kHz
Stream size                              : 87.9 MiB (13%)


  Thumbnail   




OR

OR

Share this topic on FacebookShare this topic on GoogleShare this topic on MySpaceShare this topic on TwitterShare this topic on Yahoo




Tags:
 

Related Topics





Back to top
Sitemap